<?xml version="1.0" standalone="no"?>
<!DOCTYPE svg PUBLIC "-//W3C//DTD SVG 1.1//EN" "http://www.w3.org/Graphics/SVG/1.1/DTD/svg11.dtd" >
<svg xmlns="http://www.w3.org/2000/svg">
<metadata>Generated by IcoMoon</metadata>
<defs>
<font id="tumblr-icons" horiz-adv-x="1024">
<font-face units-per-em="1024" ascent="960" descent="-64" />
<missing-glyph horiz-adv-x="1024" />
<glyph unicode="&#x20;" d="" horiz-adv-x="512" />
<glyph unicode="&#xe600;" d="M938.667 476.848l-13.653 4.566-103.979 34.947-27.904 69.042 53.291 116.236-68.565 70.791-12.757-6.742-97.493-51.034-66.987 28.675-42.155 110.006h-92.373l-4.48-14.124-38.613-95.967-66.944-28.59-112.853 54.917-68.608-70.706 56.064-113.931-27.733-68.871-117.589-41.135v-100.106l13.739-4.48 103.979-37.55 27.733-68.914-53.333-116.321 68.651-70.791 110.379 57.776 66.901-28.59 42.155-105.952h92.459l4.437 13.74 38.571 92.383 66.859 28.59 112.768-55.003 68.651 70.791-6.485 13.271-49.536 100.49 27.691 68.956 117.717 43.524v100.106zM341.333 426.687c0 94.257 76.43 170.647 170.667 170.647s170.667-76.39 170.667-170.647c0-94.217-76.47-170.687-170.667-170.687-94.237 0-170.667 76.469-170.667 170.687z" />
<glyph unicode="&#xe601;" d="M540.843 790.656c-199.893 0-341.163-146.816-344.192-309.163-1.109-56.491 8.747-81.152 42.453-130.005v0c109.056-111.317-68.437-288.853-68.437-288.853l278.997 139.947c40.32-13.995 76.032-12.16 121.088-13.184 171.563-4.224 282.581 114.688 282.581 276.992-0.043 216.96-155.349 324.267-312.491 324.267z" />
<glyph unicode="&#xe602;" d="M232.96 578.091c0 12.501 8.021 20.736 20.565 20.736h471.808v-129.493l213.333 193.664-213.333 190.336v-130.432h-569.557c-25.557 0-46.293-20.907-46.293-46.763v-287.147l123.477 121.003v68.096zM801.877 275.67c0-12.587-8.064-20.651-20.608-20.651h-482.603v128.981l-213.333-193.323 213.333-190.677v131.499h580.779c25.472 0 46.293 16.853 46.293 42.496v284.928l-123.819-120.917-0.043-62.336z" />
<glyph unicode="&#xe603;" d="M349.227 364.032c6.315 0 12.544 0.512 18.816 0.896 56.533 4.139 108.288 25.813 149.461 60.245 17.792 14.891 33.536 32.171 46.976 51.157 27.947 39.68 45.312 87.339 48.256 138.923 0.384 4.992 0.853 9.899 0.853 14.933 0 29.568-4.992 57.984-13.739 84.565-35.157 105.429-134.101 181.76-250.411 181.76-145.579 0-264.064-119.509-264.064-266.325 0-119.083 77.909-220.117 185.003-254.080 24.661-7.723 51.285-12.075 78.848-12.075zM146.432 627.712c0 115.157 93.099 208.896 207.488 208.896 114.517 0 207.659-93.568 207.659-208.896s-93.141-208.896-207.659-208.896c-114.432-0.043-207.488 93.653-207.488 208.896zM928.299 583.467l-109.312 129.237c-6.571 6.656-15.531 10.496-25.003 10.496h-68.565v-167.979h128.896v-470.187h-513.024v170.923h-84.651v-220.331c0-19.669 18.091-35.669 37.589-35.669h609.152c19.499 0 35.328 16 35.243 35.669v522.581c0 9.515-3.669 18.603-10.325 25.259zM443.52 735.275l-119.595-123.819-59.733 65.749-42.496-45.995 80.896-89.088c5.547-6.229 13.227-9.685 21.163-9.685h0.043c7.936 0 15.531 3.371 21.163 9.6l134.059 153.771-35.499 39.467zM426.837 213.376h341.035v42.624h-341.035v-42.624zM765.867 426.667h-125.867v-42.027h125.867v42.027z" />
<glyph unicode="&#xe604;" d="M512 768c-188.501 0-341.333-152.789-341.333-341.376 0-188.501 152.832-341.291 341.333-341.291 188.544 0 341.333 152.789 341.333 341.291 0 188.587-152.789 341.376-341.333 341.376zM512 722.518c62.848 0 113.792-50.901 113.792-113.792 0-62.848-50.859-113.792-113.792-113.792-62.891 0-113.792 50.944-113.792 113.792 0 62.848 50.944 113.792 113.792 113.792zM216.192 426.624c0 62.891 50.901 113.835 113.792 113.835 62.848 0 113.792-50.944 113.792-113.835 0-62.805-50.944-113.749-113.792-113.749-62.891 0-113.792 50.944-113.792 113.749zM512 130.816c-62.848 0-113.792 50.901-113.792 113.792 0 62.848 50.901 113.792 113.792 113.792 62.933 0 113.792-50.944 113.792-113.792 0-62.848-50.944-113.792-113.792-113.792zM694.101 312.875c-62.891 0-113.835 50.944-113.835 113.749 0 62.891 50.944 113.835 113.835 113.835 62.848 0 113.749-50.944 113.749-113.835 0-62.805-50.944-113.749-113.749-113.749z" />
<glyph unicode="&#xe605;" d="M341.333 213.334h341.333v42.667h-341.333v-42.667zM341.333 341.334h341.333v42.667h-341.333v-42.667zM512 512h-170.667v-42.667h170.667v42.667zM512 640h-170.667v-41.344h170.667v41.344zM824.917 551.851c-4.48 1.579-9.216 2.816-14.251 2.816h-128v213.333c0 23.552-19.072 42.667-42.667 42.667h-426.667c-23.595 0-42.667-19.072-42.667-42.667v-682.667c0-23.595 19.072-42.667 42.667-42.667h597.333c23.595 0 42.667 19.072 42.667 42.667v426.667c0 18.517-11.904 33.835-28.416 39.851zM768 128h-512v597.333h341.333v-213.333c0-7.936 2.731-15.019 6.485-21.333 7.467-12.501 20.437-21.333 36.181-21.333h128v-341.333z" />
<glyph unicode="&#xe606;" d="M426.667 640h128v-469.333h-128v469.333zM256 469.334h469.333v-128h-469.333v128z" />
<glyph unicode="&#xe607;" d="M853.333 682.667h-682.667l341.333-512 341.333 512z" />
<glyph unicode="&#xe608;" d="M207.019 170.667l305.877 305.835 304.085-304.171 121.685 121.685-304.085 304.171 1.621 1.664-121.685 121.643-429.184-429.141z" />
<glyph unicode="&#xe609;" d="M259.84 731.648l305.835-305.877-304.171-304.085 121.643-121.685 304.171 304.085 1.664-1.621 121.685 121.685-429.184 429.184z" />
<glyph unicode="&#xe60a;" d="M768 121.686l-305.835 305.877 304.171 304.085-121.685 121.685-304.171-304.085-1.664 1.621-121.643-121.685 429.141-429.184z" />
<glyph unicode="&#xe60b;" d="M816.981 682.667l-305.877-305.835-304.085 304.171-121.685-121.685 304.085-304.171-1.621-1.664 121.685-121.643 429.184 429.141z" />
<glyph unicode="&#xe60c;" d="M896.128 631.68c-20.437-23.851-51.499-34.347-85.419-34.347 3.925 0-18.432-0.981-32.896 3.584-13.781 4.48-26.411 8.747-37.419 17.92-23.979 20.096-39.893 49.835-40.363 83.499 0 0.768-0.299 1.408-0.299 2.176 0 33.152 14.848 62.677 37.632 83.157 19.797 17.749 44.715 22.997 73.387 22.997 61.909 0 112.981-44.245 112.981-106.155 0.043-28.032-10.624-53.248-27.605-72.832zM685.44 452.566c-5.333-9.429-16.896-13.312-26.667-9.173l-111.019 45.568-51.072-223.915c-1.493-6.656-6.229-12.501-12.843-15.147-6.4-2.603-13.739-2.005-19.755 1.92l-122.069 67.584-106.88-182.997-4.395-8.405h494.72c23.595 0 42.667 20.992 42.667 44.501l-0.171 339.499h85.333v-363.264c0-70.571-55.424-106.069-125.995-106.069h-557.995c-23.595 0-41.344 19.072-41.344 42.752v559.317c0 70.485 56.064 123.264 126.677 123.264h342.656v-83.243h-339.072c-23.552 0-44.928-16.512-44.928-40.021v-462.080l20.48 30.933 82.261 146.688c2.816 5.163 7.765 8.832 13.44 10.24s11.776 0.427 16.768-2.645l115.285-72.405 50.091 228.011c1.323 6.187 5.333 11.435 10.923 14.336 5.675 2.816 12.16 3.072 18.005 0.896l116.992-48.256 25.088 64.341h42.667l-39.851-102.229zM192.853 68.267l-2.944-4.352c0.512 0.768 1.365 1.067 1.792 1.835l1.152 2.517z" />
<glyph unicode="&#xe60d;" d="M815.659 224.768c-48.896 22.229-121.643 79.744-229.077 99.413 27.563 30.165 48.299 77.312 69.717 133.248 12.416 32.427 10.283 59.989 10.283 99.328 0 29.099 5.333 75.648-1.707 101.333-23.765 86.528-83.669 110.421-153.813 110.421-70.229 0-130.304-23.979-153.941-110.763-6.955-25.515-1.621-72.021-1.621-100.992 0-39.424-2.091-67.072 10.368-99.499 21.547-56.149 42.069-103.296 69.461-133.333-106.667-20.139-178.731-77.141-227.371-99.328-100.608-45.995-101.12-96.384-101.12-96.384v-85.547l810.411 0.128v85.419c-0.085 0-0.64 50.517-101.589 96.555z" />
<glyph unicode="&#xe60e;" d="M554.496 171.35v128c0 19.669 9.088 29.995 18.816 35.755 23.424 30.080 42.283 72.363 61.44 122.411 12.416 32.384 10.283 59.904 10.283 99.243 0 29.141 5.333 75.648-1.707 101.248-23.723 86.571-83.627 109.995-153.813 109.995-70.229 0-130.261-23.552-153.941-110.251-6.955-25.515-1.621-72.021-1.621-100.992 0-39.424-2.091-67.072 10.368-99.541 21.547-56.149 42.069-103.296 69.461-133.291-106.667-20.181-178.731-77.184-227.371-99.328-100.608-45.995-101.12-96.341-101.12-96.341v-85.589l597.163 0.085v85.248h-85.333c-42.624 0.683-42.624 43.349-42.624 43.349zM853.163 298.667v128h-127.829v-128h-128v-127.317h128v-128h127.829v128h128v127.317h-128z" />
<glyph unicode="&#xe60f;" d="M707.584 473.515c67.968 0 120.619 63.019 120.619 130.176 0 67.072-52.651 121.6-120.619 121.6s-123.093-54.4-123.093-121.6c0.043-67.285 55.168-130.176 123.093-130.176zM320 353.579c55.893 0 101.077 45.909 101.077 101.248 0 55.253-45.269 99.925-101.077 99.925-55.808 0-101.12-44.757-101.12-99.925 0-55.424 45.269-101.248 101.12-101.248zM319.872 290.731c-83.755 0-149.205-66.261-149.205-152.661v-9.984h298.667v10.069c0 86.699-64.896 152.576-149.461 152.576zM706.432 426.582c-102.059 0-194.432-74.411-194.432-179.755v-118.656h383.488v118.656c0 105.344-86.272 179.755-189.056 179.755z" />
<glyph unicode="&#xe610;" d="M598.912 483.414c0-28.843-10.837-68.48-32.725-118.741s-49.664-75.435-83.669-75.435c-19.456 0-34.475 6.912-45.099 20.992-10.624 13.824-15.957 32.085-15.957 54.741 0 37.504 11.947 76.16 35.797 116.352 23.765 40.064 52.309 60.075 85.333 60.075 17.152 0 30.805-5.504 41.003-16.683 10.155-11.221 15.317-25.131 15.317-41.301v0zM452.139 221.014c37.803 0 70.187 11.819 97.195 35.669 14.891 13.397 28.416 31.147 40.491 53.333-0.299-2.987-0.555-5.845-0.683-8.32-0.171-2.731-0.256-5.077-0.256-7.253 0-17.152 7.851-33.579 23.637-49.749 15.744-16 38.229-24.064 67.413-24.064 56.192 0 106.368 25.088 150.229 75.435 43.904 50.261 65.835 110.677 65.835 180.821 0 89.173-34.645 160.768-103.979 214.571-65.792 51.072-148.693 76.587-248.832 76.587-122.965 0-223.915-37.333-302.763-111.915-74.923-70.656-112.469-156.757-112.469-258.176 0-90.752 30.080-169.173 90.155-235.435 72.448-79.829 174.549-119.851 306.389-119.851 56.661 0 111.147 8.917 163.755 26.667 52.608 17.835 101.461 43.733 146.56 77.909l-34.731 51.925-11.52-7.936c-30.507-21.163-59.989-37.333-88.576-48.853-52.437-21.504-108.885-32.512-169.301-32.512-88.32 0-163.157 23.424-224.512 70.101-69.333 53.077-103.893 124.672-103.893 215.083 0 81.323 29.568 151.253 88.704 209.408 65.451 64.427 152.235 96.597 260.309 96.597 58.667 0 111.573-11.648 158.72-35.243 74.923-37.163 112.469-98.347 112.469-183.339 0-57.771-13.739-103.936-41.301-138.667-27.563-34.901-54.912-52.267-82.304-52.267-13.909 0-24.021 4.096-30.507 12.331-6.315 8.149-9.515 16.896-9.515 26.155 0 5.931 0.981 12.757 3.072 20.651 2.091 8.021 5.504 20.096 10.24 36.437l61.056 201.6h-90.027l-17.152-58.496c-4.693 18.005-14.080 33.92-27.989 47.829-18.432 18.005-44.416 27.008-77.696 27.008-56.875 0-104.875-24.576-143.872-73.429-39.083-48.896-58.667-101.333-58.667-157.397 0-48.256 12.757-85.931 38.4-112.853 25.344-26.88 57.429-40.363 95.915-40.363v0z" />
<glyph unicode="&#xe611;" d="M531.438 384.086c53.76 0 108.501 65.408 108.501 117.333s-54.656 93.995-108.501 93.995c-53.973 0-97.579-42.069-97.579-93.995 0-51.925 43.648-117.333 97.579-117.333v0zM536.515 341.248c-80.939 0-152.192-63.019-152.192-144.427v-25.771h298.283v25.771c0 81.493-64.725 144.427-146.091 144.427v0zM811.032 768h-597.376v42.667h554.709l-29.995 42.667h-529.024c-10.155 0-38.272-40.96-38.272-40.96v-215.253c-19.072-3.371-37.376-16.896-42.496-34.304-1.195-4.309-0.171-45.653-0.171-50.432 0-23.637 19.456-39.296 42.667-42.581v-128.213c-17.237-3.456-34.731-17.579-41.472-31.957-2.859-6.229-0.853-46.763-0.853-53.973 0-23.979 19.072-38.784 42.325-41.643v-214.016h640c69.419 0 85.333 15.872 84.907 85.333v597.333c0.384 69.547-15.531 85.333-84.949 85.333v0zM810.947 114.304c0-16.597-9.515-28.971-26.027-28.971h-529.237v129.451c3.115-1.792 6.656-3.029 11.179-3.029 26.496 0 74.795 38.571 74.795 65.067 0 26.496-48.299 66.261-74.795 66.261-4.48 0-8.021-1.621-11.179-3.883v132.267c3.157-1.707 6.741-2.944 11.179-2.944 26.496 0 73.6 30.080 74.795 67.328 0.853 26.496-48.299 62.677-74.795 62.677-4.437 0-8.021-1.493-11.179-3.669v87.893h529.237c16.597 0 26.069-15.019 26.069-31.573l-0.043-536.875z" />
<glyph unicode="&#xe612;" d="M879.104 725.334h-750.336l375.637-352.896 374.699 352.896zM686.549 442.624l209.451-259.243v484.267l-209.451-225.024zM129.152 666.88l-1.152-483.243 209.451 258.645-208.299 224.597zM504.32 302.55l-125.568 104.747-249.643-279.296h750.293l-262.699 291.669-112.384-117.12z" />
<glyph unicode="&#xe613;" d="M810.667 468.573v133.895c0 81.631-25.643 177.025-76.416 231.818-50.645 54.75-117.077 61.589-196.565 61.546-91.648 0.043-153.771 6.279-216.533-61.546-71.979-54.535-65.152-197.11-65.152-231.818v-133.895l-85.333-2.846c-24.704-6.795-42.667-22.353-42.667-42.825v-422.559c0-20.429 22.485-43.009 42.667-43.009h725.333c20.309 0 42.667 44.385 42.667 44.385v421.183c0 43.009-22.4 45.672-42.667 45.672h-85.333zM419.584 736.61c27.733 33.854 78.080 46.285 118.101 46.285 39.936 0 87.979-12.431 115.712-46.285 27.605-33.903 29.269-90.113 29.269-144.014v-123.078h-298.667v123.078c0 53.901 8.064 110.013 35.584 144.014z" />
<glyph unicode="&#xe614;" d="M512.683 582.443c18.859 22.613 77.099 98.645 143.232 100.181 66.176 1.365 156.416-43.776 159.061-183.68 2.688-156.928-122.539-271.573-302.677-370.944h-0.085c-180.011 99.371-305.963 214.101-303.147 370.944 2.517 139.776 93.355 185.045 159.573 183.68 66.176-1.408 124.373-77.44 143.232-100.181h0.811z" />
<glyph unicode="&#xe615;" d="M512 853.334c-235.605 0-426.667-191.104-426.667-426.667s191.061-426.667 426.667-426.667c235.563 0 426.667 191.104 426.667 426.667s-191.104 426.667-426.667 426.667zM566.485 162.091h-110.592v108.544h110.592v-108.544zM680.405 485.632c-5.931-14.549-13.184-27.008-21.931-37.376-8.661-10.325-18.347-19.115-28.928-26.411-10.581-7.253-20.565-14.549-29.824-21.845-9.472-7.296-17.835-15.616-25.088-25.003s-11.819-21.163-13.739-35.2v-26.795h-95.104v31.659c1.365 20.181 5.291 37.077 11.605 50.688 6.357 13.611 13.739 25.259 22.144 34.901 8.491 9.6 17.408 17.92 26.795 25.003 9.387 7.040 18.048 14.080 26.112 21.163 7.851 6.997 14.336 14.763 19.413 23.168 4.907 8.448 7.168 19.115 6.656 31.701 0 21.547-5.333 37.632-15.915 47.957-10.667 10.368-25.259 15.573-44.075 15.573-12.715 0-23.595-2.56-32.768-7.552-9.173-4.864-16.683-11.52-22.528-19.627-5.888-8.192-10.197-17.877-13.056-29.013-2.773-10.965-4.224-22.784-4.224-35.584h-103.595c0.469 25.429 4.821 48.683 13.056 69.888 8.235 21.163 19.712 39.552 34.56 54.955 14.763 15.531 32.64 27.605 53.589 36.395 20.907 8.704 44.331 13.056 70.144 13.056 33.28 0 61.227-4.523 83.584-13.739 22.272-9.216 40.192-20.523 53.845-34.176 13.696-13.696 23.467-28.331 29.355-44.075 5.931-15.829 8.789-30.421 8.789-44.032-0.043-22.528-2.987-41.131-8.875-55.68z" />
<glyph unicode="&#xe616;" d="M620.33 521.216c0 62.72-50.048 118.784-111.701 118.784-61.781 0-111.744-55.979-111.744-118.784 0-62.763 50.005-94.549 111.744-94.549 61.611-0.043 111.701 31.787 111.701 94.549zM342.442 203.904v-33.237h330.155v33.237c0 129.963-71.808 180.096-165.077 180.096-92.672 0-165.077-50.133-165.077-180.096zM810.666 85.334h-597.333v640h426.667v85.333h-426.667c-48.64 0-85.333-36.736-85.333-85.333v-637.269c0-48.725 36.693-88.064 85.333-88.064h606.507c48.853 0 76.16 39.509 76.16 88.064v466.603h-85.333v-469.333zM895.999 810.667v85.333h-85.333v-85.333h-85.333v-85.333h85.333v-85.333h85.333v85.333h85.333v85.333h-85.333z" />
<glyph unicode="&#xe617;" d="M823.851 207.062l-3.883 3.84-154.581 154.667c21.461 36.907 33.963 79.872 34.261 125.739 0.896 140.331-112.171 254.848-252.459 255.744-0.597 0-1.109 0-1.664 0-139.563 0-253.184-112.811-254.080-252.501-0.896-140.416 112.128-254.976 252.501-255.744 0.555 0 1.067 0 1.664 0 46.635 0 90.325 12.587 127.957 34.603l158.336-158.336c11.691-11.648 30.635-11.648 42.283 0l49.707 49.664c11.648 11.648 11.648 30.635-0.043 42.325zM444.501 332.032c-88.661 0.597-160.384 73.216-159.829 161.92 0.555 88.064 72.704 159.829 160.853 159.829h1.067c42.965-0.299 83.243-17.237 113.451-47.829s46.677-71.083 46.379-114.091c-0.256-42.795-17.109-82.944-47.488-113.067-30.336-30.165-64.939-46.336-115.285-46.336l0.853-0.427z" />
<glyph unicode="&#xe618;" d="M682.667 469.334h-128v128h-85.333v-128h-128v-85.333h128v-128h85.333v128h128v85.333zM554.667 853.334h-85.333v-128h85.333v128zM399.616 706.646l-64 110.848-73.899-42.667 64-110.848 73.899 42.667zM274.688 612.95l-110.848 64-42.667-73.899 110.848-64 42.667 73.899zM213.333 469.334h-128v-85.333h128v85.333zM232.021 314.283l-110.848-64.043 42.667-73.856 110.848 64-42.667 73.899zM261.717 78.507l73.899-42.667 64 110.891-73.899 42.667-64-110.891zM469.333-0h85.333v128h-85.333v-128zM624.384 146.688l64-110.848 73.899 42.667-64 110.848-73.899-42.667zM749.312 240.384l110.848-64 42.667 73.856-110.848 64.043-42.667-73.899zM810.667 469.334v-85.333h128v85.333h-128zM791.979 539.051l110.848 64-42.667 73.899-110.848-64 42.667-73.899zM762.283 774.827l-73.899 42.667-64-110.891 73.899-42.667 64 110.891z" />
<glyph unicode="&#xe619;" d="M768 213.334h85.333v84.48h-85.333v-84.48zM768 42.667h42.667c23.595 0 42.667 19.072 42.667 42.667v42.667h-85.333v-85.333zM554.667 42.667h127.232v85.333h-127.232v-85.333zM341.333 42.667h127.616v85.333h-127.616v-85.333zM170.667 85.334c0-23.595 19.072-42.667 42.667-42.667h42.667v85.333h-85.333v-42.667zM170.667 213.334h85.333v85.333h-85.333v-85.333zM170.667 554.667h85.333v85.333h-85.333v-85.333zM170.667 384h85.333v85.333h-85.333v-85.333zM170.667 768v-42.667h85.333v85.333h-42.667c-23.595 0-42.667-19.115-42.667-42.667zM425.813 810.667h-84.267v-85.333h84.267v85.333zM824.917 594.518c-4.48 1.579-9.216 2.816-14.251 2.816h-128v170.667c0 23.552-19.072 42.667-42.667 42.667h-128v-85.333h85.333v-170.667c0-23.595 19.072-42.667 42.667-42.667h128v-128h85.333v170.709c0 18.475-11.904 33.835-28.416 39.808z" />
<glyph unicode="&#xe61a;" d="M512 490.667c-35.371 0-63.957-28.672-63.957-63.915 0-35.413 28.587-64.085 63.957-64.085 35.285 0 64 28.587 64 64.085 0 35.243-28.629 63.915-64 63.915zM512 682.667c-212.053 0-384-255.915-384-255.915s171.947-256.085 384-256.085c212.096 0 384 256.085 384 256.085s-171.904 255.915-384 255.915zM512 266.752c-88.405 0-160 71.595-160 159.915s71.637 160 160 160c88.235 0 160-71.68 160-160s-71.765-159.915-160-159.915z" />
<glyph unicode="&#xe61b;" d="M810.667 555.392l-258.091-256.341 1.067-1.109-106.709-105.899-233.643 231.979 106.709 105.941 125.781-124.928 258.091 256.341 106.795-105.984z" />
<glyph unicode="&#xe61c;" d="M170.667 170.667h682.667l-341.333 512-341.333-512z" />
<glyph unicode="&#xe61d;" d="M256 768v-682.667l512 341.333-512 341.333z" />
<glyph unicode="&#xe61e;" d="M768 85.334v682.667l-512-341.333 512-341.333z" />
<glyph unicode="&#xe61f;" d="M324.362 46.414c2.176-1.323 4.48-2.261 6.869-2.859 13.355-3.797 28.203 0 37.461 9.643l389.76 404.267c9.429 9.6 11.648 23.595 5.675 35.456-4.139 8.363-12.117 14.805-21.888 17.664-3.541 0.981-7.339 1.493-11.051 1.493l-161.877-0.512 109.525 256.427c5.077 15.189-2.261 31.403-17.536 38.741-2.048 1.024-3.968 1.835-6.059 2.432-14.208 4.053-29.397-0.256-38.656-11.051l-352.768-402.688c-8.619-9.984-10.283-23.68-4.139-35.2 4.309-7.979 12.203-14.165 21.504-16.725 3.541-1.109 7.339-1.493 11.093-1.493l157.824-0.171-142.549-257.195c-4.779-14.72 2.133-30.891 16.811-38.229z" />
<glyph unicode="&#xe620;" d="M854.933 428.951c-3.396 1.469-6.937 2.216-10.502 2.216-7.105 0-14.163-2.842-19.437-8.237l-103.377-105.786c-2.505-2.505-12.621 4.408-18.305 1.132v108.409h-553.978v-84.255c0 0 51.869-0.826 77.729-1.467 12.046-0.299 8.083-22.686 8.083-22.686v12.070-177.87c0-64.213 38.757-67.414 101.501-67.414h332.294c21.726 0 38.658 13.040 34.37 33.995v101.020c5.636-3.252 15.752 2.649 18.305 0l103.377-105.641c5.275-5.443 12.332-8.286 19.437-8.286 3.565 0 7.105 0.723 10.502 2.144 10.309 4.408 20.16 13.176 20.16 24.617v269.346c0 11.417-9.852 22.503-20.16 26.694zM329.624 469.896c0 0 4.776 0 69.692 0h196.772c38.056 0 32.293 0 65.122 0 75.052 15.511 119.737 91.047 119.737 172.458 0 92.996-73.559 168.313-164.387 168.313-59.468 0-111.302-32.54-140.157-81.001h-6.624c-28.831 48.461-80.664 81.001-140.157 81.001-90.756 0-164.387-75.317-164.387-168.313-0.024-81.411 59.95-153.38 134.978-168.891 0 0-15.8-3.567 29.409-3.567zM610.123 616.365c41.669 0 75.51 34.588 75.51 77.196 0 5.010-0.602 9.803-1.445 14.5 15.728-14.163 25.844-34.66 25.844-57.806 0-42.729-33.793-77.292-75.437-77.292-36.852 0-67.465 27.073-74.065 62.816 13.295-11.923 30.565-19.413 49.593-19.413v0zM325.45 608.103c41.741 0 75.486 34.612 75.486 77.22 0 4.986-0.53 9.779-1.397 14.476 15.704-14.163 25.868-34.636 25.868-57.806 0-42.608-33.793-77.268-75.486-77.268-36.9 0-67.441 27.097-74.089 62.768 13.295-11.874 30.565-19.389 49.617-19.389v0z" />
<glyph unicode="&#xe621;" d="M42.747 149.964h127.993l41.625 127.484h215.633l36.717-127.484h132.674l-117.736 338.985c-29.837 85.906-89.51 257.718-89.51 257.718h-138.445l-208.952-596.703zM243.63 362.574l76.002 246.981 73.974-246.981h-149.976zM959.943 192.146c-3.997 6.079 0-11.217 0 6.879v263.609c0 53.426-11.014 90.224-47.991 109.491-36.965 19.256-79.259 28.878-126.871 28.878-73.165 0-124.757-19.521-154.808-58.586-18.887-24.957-29.523-56.829-31.917-95.617h109.246c2.675 17.091 8.047 30.646 16.104 40.688 11.272 13.566 30.472 20.35 57.589 20.35 24.151 0 42.467-3.458 54.968-10.385 12.469-6.916 18.725-19.455 18.725-37.628 0-14.925-8.144-25.907-24.421-32.955-9.071-4.066-24.14-7.468-45.217-10.175l-38.821-4.894c-44.031-5.69-77.382-15.19-100.045-28.481-41.356-24.404-62.033-63.866-62.033-118.386 0-42.047 12.836-74.538 38.562-97.451 25.704-22.913 58.269-34.38 97.693-34.38 30.903 0 58.603 7.192 83.11 21.565 20.505 12.208 38.627 26.978 54.342 44.356 0.787-10.042 1.855-19.002 3.182-26.857 1.316-7.877 3.7-14.006 7.151-22.955h112.189v18.271c0 0-17.824 20.227-20.74 24.662zM854.579 319.455c-0.809-38.799-11.617-65.512-32.478-80.162-20.829-14.638-43.621-21.963-68.365-21.963-15.597 0-28.843 4.397-39.727 13.224-10.894 8.805-16.342 23.112-16.342 42.92 0 22.25 8.92 38.656 26.751 49.239 10.528 6.231 27.872 11.523 52.034 15.864l25.78 4.883c12.879 2.442 23.008 5.082 30.407 7.932 7.367 2.839 14.691 6.573 21.94 11.18v-43.119z" />
<glyph unicode="&#xe622;" d="M838.699 390.998c-2.987 1.28-6.144 1.92-9.301 1.92-6.315 0-12.587-2.56-17.237-7.424l-114.133-95.531c-2.219-2.347-5.931-3.328-7.168-6.272v101.035h-437.376v-0.725h-82.944v-125.952h82.944v-137.131c0-18.005 14.293-35.413 33.536-35.413l368.896-0.171c19.243 0 34.944 16.683 34.944 35.584v90.411c1.237-2.944 4.949-6.741 7.168-9.088l114.133-95.488c4.651-4.907 10.923-7.509 17.237-7.509 3.157 0 6.272 0.683 9.301 1.92 9.131 3.925 15.061 13.184 15.061 23.467v242.901c0 10.283-5.931 19.584-15.061 23.467zM292.139 432.897c11.776-3.968 31.019-6.229 44.203-6.229h235.221c13.184 0 32.085 2.261 43.861 6.229 68.779 13.739 120.576 72.064 120.576 143.915 0 82.005-67.413 148.48-150.699 148.48-54.528 0-102.059-28.757-128.512-71.467h-6.059c-26.453 42.752-73.941 71.509-128.469 71.509-83.243 0-150.741-66.517-150.741-148.48 0-71.851 51.797-130.176 120.619-143.957zM553.941 544.897c43.264 0 78.336 34.517 78.336 77.141 0 4.949-0.597 9.771-1.451 14.464 16.299-14.165 26.795-34.645 26.795-57.728 0-42.624-35.029-77.184-78.336-77.184-38.229 0-69.931 27.008-76.843 62.763 13.824-11.989 31.744-19.456 51.499-19.456zM290.432 543.318c43.307 0 78.336 34.517 78.336 77.141 0 4.907-0.597 9.771-1.451 14.464 16.299-14.123 26.795-34.645 26.795-57.771 0-42.581-35.029-77.141-78.293-77.141-38.272 0-70.016 27.051-76.885 62.72 13.824-11.947 31.701-19.413 51.499-19.413z" />
<glyph unicode="&#xe623;" d="M664.883 746.286l-47.031 43.047h-190.654l-46.148-43.047h-145.121c-59.358 0-107.928-54.615-107.928-116.376v-432.271c0-61.788 48.57-112.307 107.928-112.307h573.477c59.358 0 107.928 50.546 107.928 112.307v438.417c0 61.788-48.57 110.229-107.928 110.229h-144.522zM511.987 149.333c-129.603 0-234.654 109.847-234.654 245.347 0 135.473 105.051 245.32 234.654 245.32 129.603 0 234.68-109.847 234.68-245.32 0-135.527-105.077-245.347-234.68-245.347v0zM800.014 554.667c-29.475 0-53.347 23.881-53.347 53.333s23.872 53.333 53.347 53.333c29.421 0 53.32-23.881 53.32-53.333 0.027-29.452-23.872-53.333-53.32-53.333v0zM341.333 391.297c0-53.541 21.313-101.622 55.15-135.297-1.252 8.997-2.136 18.176-2.136 27.59 0 102.038 76.905 184.729 171.735 184.729 45.058 0 85.941-18.827 116.585-49.355-12.449 88.828-83.535 157.036-169.599 157.036-94.854 0-171.735-82.717-171.735-184.703z" />
<glyph unicode="&#xe624;" d="M585.556 615.886c-11.559-12.945-22.385-61.506-27.72-116.527l50.078 5.988c32.819 5.701 58.473 13.18 67.207 21.077 25.471 25.418 26.229 66.344 1.517 91.056-24.634 24.634-65.455 23.902-91.082-1.595v0zM520.258 853.333c-216.631 0-392.258-175.627-392.258-392.284 0-216.605 175.627-392.258 392.258-392.258 216.605 0 392.258 175.653 392.258 392.284 0 216.631-175.653 392.258-392.258 392.258v0zM724.494 476.739c-22.725-22.646-69.9-35.329-116.579-42.442v-0.052l-54.995-10.277c-4.89-58.656-17.207-136.009-48.352-167.154-52.981-52.981-138.127-53.713-190.193-1.647-52.118 52.040-51.307 137.186 1.674 190.193 23.039 23.065 71.522 35.774 118.88 42.835l-1.386-71.077c-52.798-9.074-67.285-20.659-68.096-21.339-25.471-25.601-26.203-66.422-1.543-91.056 24.712-24.712 65.586-23.954 91.187 1.647 8.865 9.911 21.47 51.072 27.563 117.102l2.85 41.841c2.746 57.95 12.945 162.499 50.497 200.052 52.981 52.955 138.127 53.687 190.219 1.621 52.013-52.066 51.255-137.238-1.726-190.245v0z" />
<glyph unicode="&#xe625;" d="M809.815 597.137v84.884c0 75.168-36.352 128.646-126.911 128.646h-448.693c-90.559 0-127.544-37.935-127.544-128.646v-488.464c0-90.795 36.985-115.144 127.544-128.729h448.693c90.616 13.53 126.911 53.561 126.911 128.729v113.566l143.991 140.313-141.218 139.658-2.773 10.042zM595.819 549.916c0 17.779 10.68 30.498 27.665 30.498 16.929 0 25.903-12.719 25.903-30.498v-40.422c0-5.255-0.661-10.846-1.321-16.381l-10.543-81.57c-1.349-10.091-6.083-12.943-14.892-12.943-8.836 0-13.543 2.823-14.947 12.943l-10.515 81.57c-0.716 5.563-1.349 11.154-1.349 16.381v40.422zM455.185 342.162c0-13.642-5.423-25.494-24.747-25.494s-24.774 11.853-24.774 25.494v88.866c0 20.546-9.827 35.222-31.188 35.222-17.287 0-26.261-14.648-26.261-40.086v-84.002c0-13.642-8.175-25.494-27.527-25.494-19.351 0-33.39 11.853-27.527 25.494v209.124c-5.863 16.744 12.607 25.466 27.527 25.466 14.92 0 27.527-8.722 27.527-25.466v-70.081c9.855 13.25 16.406 26.836 44.566 26.836 29.839 0 62.403-15.319 62.403-66.922v-98.957zM540.903 342.162c0-13.642-8.258-25.494-27.527-25.494-19.379 0-27.527 11.853-27.527 25.494v140.469c0 13.586 8.148 25.41 27.527 25.41 19.269 0 27.527-11.825 27.527-25.41v-140.469zM513.376 525.149c-14.286 0-27.527 11.853-27.527 26.5 0 14.62 13.24 26.472 27.527 26.472 14.204 0 27.527-11.853 27.527-26.472 0-14.648-13.323-26.5-27.527-26.5v0zM622.631 318.792c-15.277 0-27.83 12.887-27.83 28.597 0 15.682 12.58 28.541 27.83 28.541 15.25 0 27.775-12.859 27.775-28.541 0-15.71-12.525-28.597-27.775-28.597v0z" />
<glyph unicode="&#xe626;" d="M519.683 768c-179.262 0-328.451-121.252-344.193-314.184-26.778-4.043-47.489-27.149-47.489-55.191v-203.12c0-30.851 22.935-46.328 53.661-46.328h98.404c6.328-15.097 23.195-39.609 40.507-39.609 23.012 0 42.312 22.449 42.312 45.581v283.254c0 0-19.273 46.815-42.312 46.815-17.286 0-30.843-15.675-37.145-30.773h-35.13c15.429 152.13 132.291 240.404 271.386 240.404s250.731-88.090 266.186-240.22h-29.55c-6.302 15.097-21.077 29.355-38.389 29.355-23.039 0-34.619-22.449-34.253-45.581v-283.254c-0.366-23.132 11.188-45.581 34.253-45.581 17.312 0 33.734 24.512 40.037 39.609h100.47c30.701 0 59.038 15.477 59.038 46.328v203.12c0 30.326-29.096 54.981-59.038 55.821-16.004 192.643-159.701 313.554-338.754 313.554zM278.182 371.104l-88.508-51.529 3.031 85.174h85.477v-33.646zM747.281 317.878v87.74h84.719v-29.909l-84.719-57.831zM603.051 328.284l-62.474-6.774-4.55 126.477c0 3.492-2.458 6.485-5.884 7.089-3.53 0.709-6.773-1.26-8.002-4.49l-84.152-184.976c-1.046-2.599-0.471-5.593 1.438-7.588 1.961-2.048 4.864-2.757 7.479-1.89l73.143 7.851-11.898-137.426c0-3.44 2.406-6.38 5.727-7.089 0.497-0.105 0.994-0.158 1.491-0.158 2.772 0 5.413 1.654 6.564 4.28l89.958 194.823c1.177 2.599 0.654 5.671-1.229 7.824-1.909 2.153-4.838 2.914-7.61 2.048v0z" />
<glyph unicode="&#xe627;" d="M810.667 571.648l-111.019 111.019-166.315-166.315-166.272 166.315-111.019-111.019 166.272-166.315-166.315-166.315 111.019-111.019 166.315 166.315 166.315-166.315 111.019 111.019-166.229 166.315 166.229 166.315z" />
<glyph unicode="&#xe628;" d="M328.743 383.584l203.976-192.325c9.317-9.489 9.317-24.921 0-34.41l-62.879-64.398c-9.317-9.489-24.351-9.489-33.623 0l-350.322 337.492c-0.090 0.138-1.215 33.213 0 34.502l350.322 339.070c9.272 9.535 24.306 9.535 33.623 0l62.879-64.306c9.317-9.535 9.317-24.921 0-34.456l-203.976-193.492h573.612c-1.98 0 36.312-40.315 36.312-41.927v-39.391c0 1.059-43.623-46.359-42.093-46.359h-567.831z" />
<glyph unicode="&#xe629;" d="M405.333 725.334c-35.456 0-64.171-28.757-64.171-64.171s28.715-64.171 64.171-64.171 64.171 28.757 64.171 64.171-28.757 64.171-64.171 64.171zM618.667 596.992c35.456 0 64.171 28.757 64.171 64.171s-28.715 64.171-64.171 64.171-64.171-28.757-64.171-64.171 28.715-64.171 64.171-64.171zM405.333 512c-35.456 0-64.171-28.757-64.171-64.171s28.715-64.171 64.171-64.171 64.171 28.757 64.171 64.171-28.757 64.171-64.171 64.171zM618.667 512c-35.456 0-64.171-28.757-64.171-64.171s28.715-64.171 64.171-64.171 64.171 28.757 64.171 64.171-28.757 64.171-64.171 64.171zM405.333 298.667c-35.456 0-64.171-28.757-64.171-64.171s28.715-64.171 64.171-64.171 64.171 28.757 64.171 64.171-28.757 64.171-64.171 64.171zM618.667 298.667c-35.456 0-64.171-28.757-64.171-64.171s28.715-64.171 64.171-64.171 64.171 28.757 64.171 64.171-28.757 64.171-64.171 64.171z" />
<glyph unicode="&#xe62a;" d="M469.333 768v-468.395l-181.376 181.376c-6.699 6.656-17.536 6.656-24.235 0l-45.397-45.355c-6.656-6.699-6.656-17.536 0-24.235l246.229-244.352c1.195-1.152 0.683-1.877 2.091-2.645l35.84-35.968c0.896-0.896 24.235-0.085 24.32 0l282.923 282.923c6.656 6.699 6.656 17.536 0 24.235l-45.312 45.312c-6.656 6.656-17.579 6.656-24.235 0l-185.6-185.557v472.661h-85.248zM514.091 254.848l-1.109 1.152h2.261l-1.152-1.152z" />
<glyph unicode="&#xe62b;" d="M213.333 384h468.395l-181.376-181.376c-6.656-6.699-6.656-17.536 0-24.235l45.355-45.355c6.699-6.656 17.536-6.656 24.235 0l244.352 246.229c1.152 1.195 1.877 0.683 2.645 2.091l35.968 35.84c0.896 0.896 0.085 24.235 0 24.32l-282.923 282.923c-6.699 6.656-17.536 6.656-24.235 0l-45.312-45.312c-6.656-6.699-6.656-17.579 0-24.235l185.557-185.6h-472.619v-85.291zM726.485 428.715l-1.152-1.067v2.261l1.152-1.195z" />
<glyph unicode="&#xe62c;" d="M554.667 128v468.352l181.376-181.333c6.699-6.656 17.536-6.656 24.235 0l45.355 45.355c6.656 6.699 6.656 17.536 0 24.235l-246.229 244.352c-1.195 1.152-0.683 1.877-2.091 2.645l-35.84 35.968c-0.896 0.896-24.235 0.085-24.32 0l-282.923-282.923c-6.656-6.699-6.656-17.536 0-24.235l45.312-45.312c6.699-6.656 17.579-6.656 24.235 0l185.6 185.557v-472.661h85.291zM509.909 641.152l1.109-1.152h-2.261l1.152 1.152z" />
<glyph unicode="&#xe62d;" d="M128 170.027h107.392l33.323 100.992h180.949l32.427-100.992h111.317l-173.867 491.307h-116.139l-175.403-491.307zM296.619 355.67l63.787 193.323 62.080-193.323h-125.867zM903.424 195.030c-3.115 4.437-4.992 12.885-5.675 25.344-0.427 16.427-0.683 30.464-0.683 41.984v166.656c0 43.776-15.488 73.557-46.549 89.344-31.019 15.787-66.517 23.68-106.453 23.68-61.397 0-104.661-16-129.877-48-15.872-20.437-24.789-46.549-26.795-78.336h91.648c2.261 13.995 6.741 25.131 13.525 33.323 9.472 11.093 25.557 16.683 48.299 16.683 20.267 0 35.627-2.816 46.123-8.491 10.453-5.675 15.701-15.957 15.701-30.848 0-12.203-6.827-21.205-20.48-27.008-7.595-3.328-20.267-6.101-37.931-8.32l-32.597-4.011c-36.949-4.651-64.939-12.459-83.968-23.339-34.688-20.011-52.053-52.352-52.053-96.981 0-34.432 10.795-61.056 32.341-79.829 21.675-18.816 49.024-28.203 82.091-28.203 25.941 0 49.195 5.888 69.76 17.664 17.195 9.984 32.427 22.101 45.611 36.352 0.683-8.235 1.536-15.573 2.645-22.016 1.109-6.443 3.115-13.312 6.016-20.651h103.339v13.995c-6.229 2.859-10.923 6.528-14.037 11.008v0zM802.432 311.339c-0.683-31.787-9.771-53.675-27.221-65.664-17.493-11.989-36.608-18.005-57.387-18.005-13.099 0-24.192 3.627-33.323 10.837-9.131 7.211-13.696 18.944-13.696 35.157 0 18.219 7.467 31.659 22.443 40.32 8.832 5.12 23.381 9.429 43.648 13.013l21.632 4.011c10.795 2.005 19.328 4.181 25.515 6.485 6.187 2.347 12.331 5.376 18.432 9.173v-35.328h-0.043z" />
<glyph unicode="&#xe62e;" d="M321.536 491.264c19.072 77.355 95.488 132.139 156.629 177.451l-57.344 56.619c-120.277-77.397-250.155-213.333-250.155-364.331 0-103.851 57.301-190.677 169.941-190.677 84.053 0 158.549 62.293 158.549 152.917 0 103.851-74.496 168.021-177.621 168.021zM718.251 491.264c19.115 77.355 95.488 132.139 156.629 177.451l-57.301 56.619c-120.32-77.397-250.197-213.333-250.197-364.331 0-103.851 57.301-190.677 169.984-190.677 84.053 0 158.507 62.293 158.507 152.917 0 103.851-74.453 168.021-177.621 168.021z" />
<glyph unicode="&#xe62f;" d="M794.325 725.334h-116.352l-25.088 41.856h-257.152l-25.045-41.856h-98.347c-55.936 0-101.675-45.355-101.675-100.821v-395.691c0-55.467 45.739-100.821 101.675-100.821h521.984c55.936 0 101.675 45.355 101.675 100.821v395.691c0 55.467-45.739 100.821-101.675 100.821zM525.227 209.963c-122.069 0-220.971 98.133-220.971 219.221s98.901 219.221 220.971 219.221c122.027 0 220.971-98.133 220.971-219.221-0.043-121.088-98.944-219.221-220.971-219.221zM775.424 564.011c-26.581 0-48.085 21.376-48.085 47.701 0 26.368 21.504 47.744 48.085 47.744s48.171-21.376 48.171-47.744c0-26.325-21.589-47.701-48.171-47.701zM525.227 601.088c-95.744 0-173.312-76.971-173.312-171.904 0-49.835 21.461-94.592 55.637-125.952-1.28 8.405-2.133 16.939-2.133 25.728 0 94.976 77.568 171.947 173.397 171.947 45.397 0 86.656-17.536 117.589-45.952-12.587 82.688-84.309 146.133-171.179 146.133z" />
<glyph unicode="&#xe630;" d="M593.28 590.976c-10.667-11.989-20.651-56.96-25.6-107.819l46.251 5.547c30.336 5.291 54.016 12.203 62.080 19.499 23.552 23.552 24.235 61.397 1.408 84.267-22.741 22.741-60.459 22.059-84.139-1.493zM532.949 810.667c-200.064 0-362.283-162.517-362.283-362.965 0-200.448 162.219-363.008 362.283-363.008 200.107 0 362.368 162.56 362.368 363.008 0 200.448-162.261 362.965-362.368 362.965zM721.621 462.208c-20.949-20.949-64.597-32.725-107.648-39.339l-50.773-9.515c-4.48-54.272-15.915-125.867-44.672-154.709-48.939-48.981-127.616-49.664-175.701-1.493-48.128 48.171-47.36 126.976 1.536 176.043 21.291 21.291 66.091 33.024 109.824 39.595l-1.28-65.792c-48.811-8.363-62.165-19.072-62.933-19.755-23.552-23.68-24.192-61.44-1.408-84.267 22.784-22.869 60.587-22.187 84.224 1.536 8.192 9.173 19.84 47.232 25.472 108.288l2.603 38.741c2.603 53.632 11.989 150.357 46.677 185.131 48.939 48.981 127.573 49.664 175.659 1.493 48.085-48.128 47.36-126.933-1.579-175.957z" />
<glyph unicode="&#xe631;" d="M809.813 552.448c0 48.597 0 105.6 0 146.432 0 77.44-40.96 111.787-123.051 111.787h-435.712c-82.091 0-123.051-47.488-123.051-141.013v-443.307c0-93.525 40.96-141.013 123.051-141.013h435.755c82.091 0 123.051 34.347 123.051 111.787 0 40.789 0 76.971 0 125.483l113.92 123.435-113.963 106.411zM620.587 578.774c0 23.168 11.563 34.987 31.531 34.987s31.531-11.819 31.531-34.987v-52.736c0-6.827-0.768-14.123-1.621-21.376l-12.373-106.411c-1.579-13.184-7.125-16.853-17.536-16.853-10.368 0-15.957 3.712-17.536 16.853l-12.416 106.411c-0.811 7.253-1.579 14.549-1.579 21.376v52.736zM455.040 307.798c0-17.749-6.357-33.237-29.141-33.237-22.741 0-29.184 15.488-29.184 33.237v115.968c0 26.795-11.563 45.909-36.693 45.909-20.352 0-44.331-19.115-44.331-52.309v-109.568c0-17.749-6.315-33.237-29.099-33.237s-29.227 15.488-29.227 33.237v272.768c0 21.845 11.605 33.195 29.227 33.195 17.536 0 29.099-11.392 29.099-33.195v-91.435h0.811c11.605 17.323 31.957 35.072 65.067 35.072 35.115 0 73.472-20.011 73.472-87.296v-129.109zM562.731 307.798c0-17.749-6.4-33.237-29.099-33.237-22.784 0-29.227 15.488-29.227 33.237v183.253c0 17.707 6.4 33.152 29.227 33.152 22.656 0 29.099-15.445 29.099-33.152v-183.253zM533.675 546.518c-16.811 0-30.379 15.445-30.379 34.56 0 19.029 13.525 34.517 30.379 34.517 16.725 0 30.251-15.445 30.251-34.517 0-19.115-13.568-34.56-30.251-34.56zM652.117 277.291c-17.963 0-32.768 16.853-32.768 37.291 0 20.437 14.805 37.291 32.768 37.291 17.963 0 32.768-16.853 32.768-37.291 0-20.437-14.805-37.291-32.768-37.291z" />
<glyph unicode="&#xe632;" d="M884.181 454.315c-16.341 191.36-171.136 313.088-353.92 313.088-182.955 0-337.707-122.027-353.749-313.771-27.392-4.011-48.512-26.965-48.512-54.784v-215.125c0-30.677 25.515-55.637 56.875-55.637h114.133c6.443-15.019 33.92-41.003 51.541-41.003 23.552 0 32.427 43.733 32.427 66.731v281.387c0 22.997-8.875 66.645-32.427 66.645-17.621 0-45.099-32.427-51.541-47.403h-47.744c15.744 151.125 137.045 240.256 278.997 240.256 141.995 0 263.467-89.131 279.253-240.256h-37.12c-6.443 15.019-33.877 47.403-51.541 47.403-23.552 0-37.973-43.648-37.973-66.645v-281.387c0-22.997 14.421-66.731 37.973-66.731 17.664 0 45.099 25.984 51.541 41.003h110.123c31.317 0 56.149 24.96 56.149 55.637v215.125c0 30.080-23.979 54.571-54.485 55.467zM255.787 405.035v-44.331l-85.547-53.376v97.707h85.547zM896.043 365.995l-85.589-53.376v92.245h85.589v-38.869zM621.44 354.304l-67.115-22.827-0.597 162.731c0 4.523-3.285 8.363-7.851 9.173-4.651 0.896-8.96-1.621-10.581-5.803l-101.333-245.12c-1.365-3.371-0.64-7.211 1.92-9.813 2.603-2.645 6.443-3.541 9.856-2.432l65.195 17.195 0.597-162.731c0-4.437-8.448-8.192-4.096-9.088 0.683-0.171 12.971-0.256 13.653-0.256 3.669 0 7.125 2.133 8.704 5.547l103.381 250.752c1.536 3.328 0.896 7.296-1.621 10.069-2.56 2.773-6.485 3.712-10.112 2.603z" />
<glyph unicode="&#xe633;" d="M253.137 496.027c21.278 89.914 106.199 153.54 174.19 206.171l-63.725 65.803c-133.836-89.941-278.269-247.862-278.269-423.308 0-120.638 63.725-221.547 189.082-221.547 93.454 0 176.31 72.361 176.31 177.678 0 120.611-82.856 195.204-197.588 195.204v0zM713.579 496.027c21.251 89.914 106.199 153.54 174.19 206.171l-63.697 65.803c-133.863-89.941-278.297-247.862-278.297-423.308 0-120.638 63.697-221.547 189.055-221.547 93.454 0 176.31 72.361 176.31 177.678 0 120.611-82.856 195.204-197.56 195.204v0z" />
<glyph unicode="&#xe634;" d="M68.267 682.666h204.8v204.8h-204.8v-204.8zM409.6 682.666h204.8v204.8h-204.8v-204.8zM750.933 682.666h204.8v204.8h-204.8v-204.8zM68.267 341.333h204.8v204.8h-204.8v-204.8zM409.6 341.333h204.8v204.8h-204.8v-204.8zM750.933 341.333h204.8v204.8h-204.8v-204.8zM68.267 0h204.8v204.8h-204.8v-204.8zM409.6 0h204.8v204.8h-204.8v-204.8zM750.933 0h204.8v204.8h-204.8v-204.8z" />
<glyph unicode="&#xe635;" d="M68.267 887.466h887.467v-204.8h-887.467v204.8zM68.267 204.8h887.467v-204.8h-887.467v204.8zM68.267 546.133h887.467v-204.8h-887.467v204.8z" />
<glyph unicode="&#xe636;" d="M511.915 810.667l118.699-240.427 265.387-38.613-192.043-187.264 45.355-264.235-237.312 124.715-237.312-124.715 45.355 264.235-192.043 187.264 265.387 38.613 118.528 240.427z" />
<glyph unicode="&#xe637;" d="M514.645 87.126c-3.029-3.541-43.776-1.451-45.013 0l-383.403 426.069-0.384 42.368 202.368 204.032c5.973 5.931 14.123 9.216 22.613 8.235h361.259c8.491 0.981 16.64-2.304 22.613-8.192l200.448-204.373c0.853-0.256 0.853-42.155 0.853-42.155l-381.355-425.984zM584.235 512.982l-186.24-0.299 93.355-291.072 92.885 291.371zM555.563 212.395l236.245 300.971-140.416-0.256-95.829-300.715zM428.8 210.688l-97.792 301.867-138.923-0.256 236.715-301.611zM292.224 672.086l-117.76-115.499 143.915-0.341-26.155 115.84zM345.429 703.36l18.005-95.616 85.76 95.616c0 0-103.765 0-103.765 0zM396.672 556.075l187.947-0.427-93.611 125.867-94.336-125.44zM535.808 703.36l80.171-93.013 21.12 93.013c0 0-101.291 0-101.291 0zM690.005 672.811l-26.496-117.376 146.517-0.341-120.021 117.717z" />
<glyph unicode="&#xe638;" d="M852.267 469.334c-11.093 190.293-168.491 341.333-361.6 341.333-200.277 0-362.667-162.389-362.667-362.667 0-200.277 162.389-362.667 362.667-362.667 193.067 0 350.507 151.040 361.6 341.333h1.067v42.667h-1.067zM584.661 298.667h-187.989c-7.595 37.76-12.629 80.768-13.867 128h215.68c-1.195-47.232-6.229-90.24-13.824-128v0zM396.928 597.334h187.52c7.637-37.845 12.843-80.64 14.080-128h-215.68c1.195 47.36 6.4 90.155 14.080 128v0zM626.389 597.334h122.069c22.272-38.229 36.437-81.536 39.765-128h-148.651c-1.109 45.525-5.803 88.491-13.184 128v0zM718.507 640h-101.547c-9.045 34.859-20.181 66.133-33.408 91.733 53.205-17.493 99.541-49.835 134.955-91.733v0zM490.667 746.667c12.501 0 24.747-0.981 36.821-2.517 17.067-21.931 33.835-57.643 46.933-104.149h-167.509c13.141 46.507 29.952 82.219 46.933 104.149 12.075 1.536 24.32 2.517 36.821 2.517v0zM397.781 731.691c-13.227-25.6-24.363-56.789-33.365-91.691h-101.589c35.371 41.941 81.707 74.24 134.955 91.691v0zM232.832 597.334h122.112c-7.381-39.509-12.075-82.475-13.184-128h-148.693c3.328 46.464 17.493 89.771 39.765 128v0zM341.76 426.667c1.109-45.44 5.547-88.576 12.928-128h-122.283c-22.144 38.187-36.011 81.579-39.339 128h148.693zM263.381 256h101.248c9.003-34.816 20.011-66.176 33.195-91.733-53.163 17.451-99.115 49.963-134.443 91.733v0zM490.667 149.334c-12.501 0-24.747 0.981-36.821 2.517-16.939 21.931-33.621 57.813-46.677 104.149h166.955c-13.013-46.336-29.696-82.219-46.677-104.149-12.032-1.536-24.277-2.517-36.779-2.517v0zM583.552 164.31c13.184 25.515 24.192 56.917 33.195 91.691h101.205c-35.413-41.813-81.323-74.283-134.4-91.691v0zM748.928 298.667h-122.24c7.339 39.424 11.776 82.56 12.928 128h148.651c-3.328-46.421-17.195-89.813-39.339-128v0z" />
<glyph unicode="&#xe639;" d="M490.667 810.667c-200.277 0-362.667-162.389-362.667-362.667s162.389-362.667 362.667-362.667 362.667 162.389 362.667 362.667-162.389 362.667-362.667 362.667zM682.667 384h-256v256h85.333v-170.667h170.667v-85.333z" />
<glyph unicode="&#xe63a;" d="M756.877 802.919c13.629 13.629 10.816 31.854-0.357 43.026-12.48 12.52-32.408 27.075-45.086 39.753-10.578 10.578-25 15.214-40.253 0-80.229-80.229-348.727-357.261-428.401-436.974-16.798-16.759-17.234-28.090 1.387-46.711 82.725-82.725 352.372-361.96 427.014-436.602 8.756-8.756 28.13-12.084 40.253 0 13.787 13.827 34.112 29.556 47.582 43.066 13.074 13.035 11.371 27.258-1.822 40.411-72.186 72.226-297.262 302.848-357.007 362.594-10.024 10.024-5.943 23.256 0.357 29.556 60.181 60.221 283.87 289.457 356.334 361.88z" />
<glyph unicode="&#xe63b;" d="M245.789 50.415c-13.629-13.629-10.816-31.854 0.357-43.026 12.48-12.52 32.408-27.075 45.086-39.753 10.578-10.578 25-15.214 40.253 0 80.229 80.229 348.727 357.261 428.401 436.974 16.798 16.759 17.234 28.090-1.387 46.711-82.725 82.725-352.372 361.96-427.014 436.602-8.756 8.756-28.13 12.084-40.253 0-13.787-13.827-34.112-29.556-47.582-43.066-13.074-13.035-11.371-27.258 1.822-40.411 72.186-72.226 297.262-302.848 357.007-362.594 10.024-10.024 5.943-23.256-0.357-29.556-60.181-60.221-283.87-289.457-356.334-361.88z" />
<glyph unicode="&#xe63c;" d="M512 768c-23.573 0-42.667 19.093-42.667 42.667 0 23.552 19.093 42.667 42.667 42.667 23.552 0 42.667-19.115 42.667-42.667 0-23.573-19.115-42.667-42.667-42.667v0zM512 597.334c23.552 0 42.667-19.115 42.667-42.667 0-23.573-19.115-42.667-42.667-42.667-23.573 0-42.667 19.093-42.667 42.667 0 23.552 19.093 42.667 42.667 42.667v0zM512 341.334c23.552 0 42.667-19.115 42.667-42.667 0-23.573-19.115-42.667-42.667-42.667-23.573 0-42.667 19.093-42.667 42.667 0 23.552 19.093 42.667 42.667 42.667v0zM512 85.334c23.552 0 42.667-19.115 42.667-42.667 0-23.573-19.115-42.667-42.667-42.667-23.573 0-42.667 19.093-42.667 42.667 0 23.552 19.093 42.667 42.667 42.667v0z" />
<glyph unicode="&#xe63d;" d="M535.211 432.086c109.995 0 199.509 84.992 199.509 189.44 0 104.405-89.515 189.312-199.509 189.312-110.037 0-199.595-84.907-199.595-189.312 0-104.448 89.557-189.44 199.595-189.44v0zM533.291 364.843c-179.413 0-319.957-138.539-319.957-315.435 0-27.221 22.955-49.408 51.157-49.408h537.472c28.203 0 51.157 22.187 51.157 49.408 0 176.896-140.459 315.435-319.829 315.435v0z" />
<glyph unicode="&#xe63e;" d="M230.4 303.83h-0.043v-0.043l-52.352-211.328 211.413 52.395 348.16 348.16-159.061 158.933-348.117-348.117zM605.141 543.616l-265.429-265.472-26.24 26.24 265.472 265.429 26.197-26.197zM737.195 810.582l-104.661-104.661 158.976-159.019 104.661 104.661-158.976 159.019z" />
<glyph unicode="&#xe63f;" d="M512.128 472.427h340.608v295.573l-340.608-53.419v-242.154zM213.333 471.313h254.251v239.514l-254.251-40.021v-199.493zM213.333 201.472l254.251-43.179v258.432l-254.251-1.92v-213.333zM509.952 154.496l342.784-54.059v318.464h-342.784v-264.405z" />
<glyph unicode="&#xe640;" d="M716.793 449.579c-4.48-27.904-0.683-57.045 10.667-83.029 14.464-33.152 41.259-61.312 78.933-75.776-1.109-2.475-2.176-4.949-3.243-7.253-12.928-28.928-20.437-43.947-38.357-71.595-2.389-3.755-4.907-7.509-7.467-11.392-26.411-39.296-61.867-82.475-104.789-82.859-41.984-0.427-52.779 27.691-109.696 27.349-56.917-0.256-68.779-27.861-110.763-27.435-44.8 0.384-79.659 42.837-106.197 82.901l-4.096 6.272c-16.128 24.96-29.184 50.816-39.253 76.8-10.837 27.904-18.304 55.893-22.485 83.029-4.48 29.099-5.205 57.216-2.347 82.987 3.499 32.043 12.544 60.544 26.667 82.987 0.128 0.341 0.341 0.683 0.555 1.024 33.152 51.755 85.376 82.091 134.528 82.091 50.005 0 81.493-27.861 122.837-27.861 40.107 0 64.555 27.904 122.411 27.904 43.691 0 90.027-24.192 123.008-65.963-9.088-5.077-17.365-10.837-24.704-17.195-26.112-22.485-41.173-52.011-46.208-82.987v0zM522.062 611.499c-6.827 37.845 10.709 76.757 32 102.997 23.467 28.928 63.573 51.072 97.92 53.504 5.803-39.552-10.155-78.208-31.189-105.643-22.485-29.312-61.269-52.011-98.731-50.859v0z" />
<glyph unicode="&#xe641;" d="M254.677 554.694c-25.344 0-41.344-14.537-41.344-37.851l0.043-176.935c0-23.395 16-42.281 41.344-42.281 25.301 0 44.203 18.885 44.16 42.281v176.975c0 23.315-14.379 37.811-39.68 37.811h-4.523zM672.299 794.096c1.707 2.987-5.461 12.8-8.576 14.507-3.157 1.621-17.579 0.555-19.243-2.432l-32.256-57.728c-27.221 11.861-47.061 18.475-79.275 18.475-32.128 0-54.997-3.584-82.091-15.36l-32.299 57.515c-1.707 3.029-13.141 1.109-16.171-0.555-3.157-1.621-11.861-11.435-10.155-14.421l32.043-57.003c-62.891-31.744-82.075-68.137-82.033-137.385h383.333c0 69.248-22.474 105.598-85.279 137.342l32 57.045zM440.685 640.464c-8.619 8.448-13.63 8.571-13.63 17.915 0 9.259 11.32 22.846 20.878 22.846 9.557 0 20.835-8.132 20.878-17.391 0-9.344-0.4-23.37-10-23.37 0 0-9.506-8.448-18.125 0zM597.734 659.889c0 9.301 11.47 22.507 20.984 22.507 9.557 0 21.797-13.206 21.797-22.507 0.043-9.344-12.24-19.654-21.797-19.654-9.515-0.043-20.984 10.31-20.984 19.654zM340.651 272.304c0-25.944 17.843-60.046 44.894-60.046h42.68v-84.3c0-24.267 15.211-44.092 40.427-44.092 25.344 0 45.909 19.783 45.909 44.008v84.384h40.036v-84.3c0-24.225 16.369-44.050 41.628-44.008 25.301-0.042 42.562 19.699 42.562 44.008v84.3h43.859c26.965-0.042 42.944 34.102 42.944 60.046l-0.043 282.363-384.896-0.084v-282.279zM812.333 554.779c0 0-43.88-0.086-43.88-24.79v-187.477c0-24.789 14.992-44.8 40.379-44.8 25.301 0 44.847 19.968 44.889 44.8v187.477c0 24.747-41.388 24.79-41.388 24.79z" />
<glyph unicode="&#xe642;" d="M606.927 426.933c0 62.314-29.69 85.599-95.052 85.599-65.518 0-87.177-23.285-87.177-85.599 0-62.314 21.711-85.599 87.177-85.599 65.259 0 95.052 23.285 95.052 85.599zM515.491 256c-92.62 0-174.158-63.192-174.158-144.825v-25.842h341.333v25.842c0 81.718-74.067 144.825-167.176 144.825v0zM170.333 766.745l13.883 92.060h571.205l12.727 79.862h-583.932c-12.825 0-95.175-129.059-95.175-129.059v-213.504c-24.088-4.057-87.437-5.187-87.437 0-1.509-5.187 4.867-82.115 0-82.115 0 0 58.122 3.955 87.437 0v-264h-87.437c0 0-7.334-83.594 0-83.594 87.437 0 58.068 3.441 87.437 0v-251.729h774.278c74.4 0 74.4 82.708 74.4 82.708v656.333c0.485 83.716 2.002 113.037-85.673 113.037h-681.714zM853.315-2.979h-682.649v169.75c32.573 0 92.465 19.663 92.465 51.354s-59.892 32.229-92.465 32.229c-5.507 0 3.881 92.194 0 89.49v167.833c32.573 0 90.996 4.23 92.465 48.781 1.049 31.691-59.892 37.563-92.465 37.563-5.455 0 0 88.646 0 88.646h650.618c20.404 0 32.048-17.963 32.048-37.764l-0.018-231.131c-0.012-148.245 0-324.555 0-324.555 0-19.851 20.299-92.197 0-92.197z" />
<glyph unicode="&#xe643;" d="M689.625 599.938l334.375-52.441-249.219-293.277 71.563-339.552-334.369 171.448-338.995-171.448 86.146 339.552-259.125 293.277 346.062 52.441 165.912 338.729 177.65-338.729z" />
<glyph unicode="&#xe644;" d="M764.938 425.998v133.919c0 81.646-8.981 160.809-62.427 215.612-53.311 54.76-102.258 77.848-185.929 77.805-96.472 0.043-111.348-9.967-177.414-77.805-75.767-54.545-83.427-180.898-83.427-215.612v-133.919l-40.208-2.847c-26.004-6.797-44.912-22.357-44.912-42.833v-337.301c0-20.433 23.669-43.017 44.912-43.017h588.702c21.378 0 44.912 44.393 44.912 44.393v335.924c0 43.017-23.579 45.68-44.912 45.68h-39.296zM382.001 717.586c31.695 36.874 89.234 50.414 134.973 50.414 45.641 0 100.547-13.54 132.242-50.414 31.549-36.927 33.451-98.152 33.451-156.862v-134.058h-341.333v134.058c0 58.709 9.216 119.827 40.667 156.862z" />
<glyph unicode="&#xe645;" d="M678.016 723.006l-27.264 42.581h-235.861l-27.474-42.581h-46.251v-82.901h-85.333v-85.333h-128.725l0.167-373.437c0-63.829 51.072-138.521 111.915-138.521h587.221c60.843 0 112.597 74.692 112.597 138.521v446.848c0 63.829-51.755 94.824-112.597 94.824h-148.395zM535.125 135.723c-132.693 0-240.256 112.981-240.256 252.373 0 139.307 107.563 252.331 240.256 252.331 132.693 0 240.299-113.024 240.299-252.331 0-139.392-107.605-252.373-240.299-252.373v0zM805.163 554.667c-28.928 0-52.352 24.619-52.352 54.955s23.424 54.955 52.352 54.955c28.843 0 52.352-24.619 52.352-54.955 0-30.336-23.509-54.955-52.352-54.955v0zM212.672 681.782h85.333v85.333h-85.333v85.333h-85.333l-0.469-85.333h-84.864v-85.333h84.48l-0.469-85.333h86.656v85.333zM535.851 575.019c-104.107 0-188.501-84.352-188.501-188.416 0-54.656 23.424-103.68 60.544-138.112-1.408 9.216-2.389 18.603-2.389 28.16 0 104.149 84.395 188.501 188.501 188.501 49.408 0 94.293-19.2 127.915-50.347-13.653 90.667-91.648 160.213-186.069 160.213z" />
<glyph unicode="&#xe646;" d="M873.191 726.339c67.501-81.282 108.143-185.753 108.143-299.672 0-259.196-210.138-469.333-469.333-469.333-114.373 0-219.174 40.971-300.621 108.968l-0.66-0.701-9.572 9.572c-97.167 85.986-158.48 211.54-158.48 351.495 0 259.196 210.138 469.333 469.333 469.333 119.943 0 229.282-45.056 312.256-119.035l0.206 0.206 2.764-2.806c11.347-10.274 22.198-21.125 32.472-32.472l14.524-14.524-1.032-1.032zM502.851 42.667c217.128 0 393.149 176.244 393.149 393.649 0 93.272-32.488 178.891-86.607 246.351l-553.393-552.631c67.456-54.595 153.332-87.369 246.851-87.369v0zM514.133 810.667c-213.253 0-386.133-173.095-386.133-386.615 0-96.964 35.742-185.53 94.646-253.385l545.354 544.556c-67.89 59.378-156.665 95.444-253.867 95.444v0z" />
<glyph unicode="&#xe647;" d="M639.508 313.724v184.747c-16.64 1.707-223.934 19.929-402.708-135.804 0 0 42.601 318.724 402.708 319.151v194.956l363.159-279.867-363.159-283.183zM853.375 86.146l-811.612 2.862 5.841 634.341h292.714l-84.117-83.010h-129.010v-469.997h641.247v100.159l84.938 69.553v-253.908z" />
<glyph unicode="&#xe648;" d="M963.539 294.17l-156.494 156.494 62.998 62.998 156.449-156.538 155.693 155.648 62.954-62.954-155.693-155.693-62.152-63.755-63.755 63.8zM658.788 3.488h-560.84c-29.429 0-53.426 23.151-53.426 51.601 0 184.543 146.655 329.105 333.869 329.105 187.169 0 333.779-144.562 333.779-329.105 0-28.449-23.953-51.601-53.382-51.601v0zM380.438 454.36c-114.866 0-208.273 88.687-208.273 197.677 0 108.945 93.407 197.587 208.273 197.587 114.777 0 208.184-88.643 208.184-197.587 0-108.989-93.407-197.677-208.184-197.677v0z" horiz-adv-x="1291" />
<glyph unicode="&#xe649;" d="M553.698 344.918v40.76h-170.125v-193.115c0-14.421-3.413-19.302-19.115-19.302-15.744 0-23.125 4.881-23.125 19.302v421.368c0 14.379 7.381 27.062 23.125 27.062 15.701 0 19.115-30.15 19.115-44.529h170.125v-44.208h128.969v-207.338h-128.969z" />
<glyph unicode="&#xe64a;" d="M89.043 628.217h222.787v221.407h-222.787v-221.407zM622.013 849.624h-221.407v-221.407h221.407v221.407zM712.17 849.624v-221.407h222.787v221.407h-222.787zM89.043 315.274h221.407v224.167h-221.407v-224.167zM400.607 315.274h222.787v224.167h-222.787v-224.167zM712.17 315.274h222.787v224.167h-222.787v-224.167zM89.043 3.71h221.407v222.787h-221.407v-222.787zM400.607 3.71h222.787v222.787h-222.787v-222.787zM712.17 3.71h222.787v222.787h-222.787v-222.787z" />
<glyph unicode="&#xe64b;" d="M786.517 313.686l-25.344 25.429 87.851 87.211-87.637 87.083 25.216 25.899 112.768-112.768-112.853-112.853zM387.285 426.667l126.592 126.592 126.592-126.592-126.592-126.592-126.592 126.592zM514.219 761.643l-87.424-87.936-25.941 25.301 113.152 113.152 113.152-113.152-25.515-25.429-87.424 88.064zM266.453 339.243l-25.301-25.984-113.152 113.152 113.237 113.237 25.472-25.515-88.149-87.552 87.893-87.339zM513.579 91.52l87.083 87.637 25.856-25.173-112.768-112.768-112.768 112.768 25.429 25.344 87.168-87.808z" />
<glyph unicode="&#xe64c;" d="M766.080 689.238c-64.427 64.597-150.101 100.096-241.237 100.096-91.179 0-176.811-35.541-241.28-100.096-106.624-106.795-130.133-269.696-59.861-401.835l-24.149-114.475c-2.987-14.251 1.365-29.099 11.691-39.424 10.283-10.283 25.088-14.763 39.296-11.691l114.432 24.149c49.195-26.197 104.277-39.339 160.341-39.339 90.965 0 176.469 34.859 240.768 99.285 133.077 133.291 133.077 350.080 0 483.328zM687.744 384.854c0-51.584-47.957-94.251-120.277-107.52v-42.667h-42.667v42.667c-56.96 7.637-136.064 24.235-165.291 53.888l55.893 73.6c32.299-29.141 81.024-48.555 110.805-48.555 21.547 0 33.323 6.144 33.323 17.877 0 36.309-178.475 31.189-178.475 144.64 0 52.608 74.496 87.595 143.744 99.883v42.667h42.667v-42.667c51.285-9.173 96.683-24.235 120.277-48.299l-56.917-64.427c-26.667 22.016-71.808 37.376-97.493 37.376-16.896 0-28.203-6.144-28.203-17.877 0.043-36.779 182.613-27.136 182.613-140.587z" />
</font>
</defs>
</svg>
